Son of Satyamurthy (2015) - 1CDRip - DVDscr - x264 - AAC - DM Exclusive

Discussion in 'Other Language Movies' started by bharg123, Apr 12, 2015.

  1. bharg123

    bharg123 Active Member



    [​IMG]




    Code:
    General
    
    Format                                   : MPEG-4
    Format profile                           : Base Media
    Codec ID                                 : isom
    File size                                : 718 MiB
    Duration                                 : 2h 35mn
    Overall bit rate mode                    : Variable
    Overall bit rate                         : 645 Kbps
    Writing application                      : Lavf54.63.104
    
    Video
    ID                                       : 1
    Format                                   : AVC
    Format/Info                              : Advanced Video Codec
    Format profile                           : [email protected]
    Format settings, CABAC                   : Yes
    Format settings, ReFrames                : 4 frames
    Codec ID                                 : avc1
    Codec ID/Info                            : Advanced Video Coding
    Duration                                 : 2h 35mn
    Bit rate                                 : 559 Kbps
    Width                                    : 640 pixels
    Height                                   : 272 pixels
    Display aspect ratio                     : 2.35:1
    Frame rate mode                          : Variable
    Frame rate                               : 25.000 fps
    Minimum frame rate                       : 12.500 fps
    Maximum frame rate                       : 25.000 fps
    Color space                              : YUV
    Chroma subsampling                       : 4:2:0
    Bit depth                                : 8 bits
    Scan type                                : Progressive
    Bits/(Pixel*Frame)                       : 0.128
    Stream size                              : 622 MiB (87%)
    Writing library                          : x264 core 112
    Encoding settings                        : cabac=1 / ref=2 / deblock=1:0:0 / ****yse=0x1:0x111 / me=hex / subme=6 / psy=1 / psy_rd=1.00:0.00 / mixed_ref=0 / me_range=16 / chroma_me=1 / trellis=0 / 8x8dct=0 / cqm=0 / deadzone=21,11 / fast_pskip=1 / chroma_qp_offset=-2 / threads=18 / sliced_threads=0 / nr=0 / decimate=1 / interlaced=0 / constrained_intra=0 / bframes=2 / b_pyramid=2 / b_adapt=1 / b_bias=0 / direct=1 / weightb=0 / open_gop=0 / weightp=2 / keyint=250 / keyint_min=25 / scenecut=40 / intra_refresh=0 / rc_lookahead=40 / rc=2pass / mbtree=1 / bitrate=559 / ratetol=1.0 / qcomp=0.60 / qpmin=3 / qpmax=51 / qpstep=4 / cplxblur=20.0 / qblur=0.5 / ip_ratio=1.40 / aq=1:1.00
    Color primaries                          : BT.601 NTSC
    Transfer characteristics                 : BT.709
    Matrix coefficients                      : BT.601
    Color range                              : Limited
    
    Audio
    ID                                       : 2
    Format                                   : AAC
    Format/Info                              : Advanced Audio Codec
    Format profile                           : LC
    Codec ID                                 : 40
    Duration                                 : 2h 35mn
    Bit rate mode                            : Variable
    Bit rate                                 : 80.0 Kbps
    Maximum bit rate                         : 128 Kbps
    Channel(s)                               : 2 channels
    Channel positions                        : Front: L R
    Sampling rate                            : 48.0 KHz
    Compression mode                         : Lossy
    Stream size                              : 89.0 MiB (12%)
    
    
    [​IMG]
    [​IMG]
    [​IMG]


    SINGLE DIRECT FAST LINKS


    Code:
    https://www.secureupload.eu/mgs3uzlemblm/Son.of.Satyamurthy.2015..DVDscr.x264.AAC-Exclusive.mp4
    Code:
    Http://rapidgator.net/file/4489ffaad4c94fba99613ec51639d54f/Son.of.Satyamurthy.2015..DVDscr.x264.AAC-Exclusive.mp4.html
    Code:
    http://uploaded.net/file/92clzt12/Son.of.Satyamurthy.2015..DVDscr.x264.AAC-Exclusive.rar
     

Share This Page