Sanai Choughade * (2008) * 2CD * DVDRiP * XviD * AC3 * Eng*Subs

Discussion in 'Marathi' started by czz61245, Mar 12, 2009.

  1. czz61245

    czz61245 BZ Rockers

    Sanai Choughade * (2008) * 2CD * DVDRiP * XviD * AC3 * Eng*Subs [Marathi]
    Format : AVI
    Format/Info : Audio Video Interleave
    Format profile : OpenDML
    File size : 1.36 GiB
    Duration : 1h 58mn
    Overall bit rate : 1 644 Kbps
    Writing application : AVI-Mux GUI 1.17.7, Aug 8 2006 20:59:17

    Video
    Format : MPEG-4 Visual
    Format profile : Streaming [email protected]
    Format settings, BVOP : Yes
    Format settings, QPel : No
    Format settings, GMC : No warppoints
    Format settings, Matrix : Default
    Codec ID : XVID
    Codec ID/Hint : XviD
    Duration : 1h 58mn
    Bit rate : 1 446 Kbps
    Width : 640 pixels
    Height : 272 pixels
    Display aspect ratio : 2.35
    _frame_ rate : 29.970 fps
    Resolution : 24 bits
    Colorimetry : 4:2:0
    Scan type : Progressive
    Bits/(Pixel*_frame_) : 0.277
    Stream size : 1.20 GiB (88%)
    Writing library : XviD 50

    Audio
    Format : AC-3
    Format/Info : Audio Coding 3
    Codec ID : 2000
    Bit rate mode : Constant
    Bit rate : 192 Kbps
    Channel(s) : 2 channels
    Channel positions : L R
    Sampling rate : 48.0 KHz
    Stream size : 163 MiB (12%)
    Alignment : Aligned on interleaves
    Interleave, duration : 64 ms (1.92 video _frame_s)
    Interleave, preload duration : 192 ms
    _title_ : Sanai Chaughade T81 2_0ch 192Kbps DELAY 0ms





    http://rapidshare.com/files/185756409/Sanai.Chaughade.2008.2CD.DVDRiP.XviD.by.IndianHacker.avi.001
    http://rapidshare.com/files/185760504/Sanai.Chaughade.2008.2CD.DVDRiP.XviD.by.IndianHacker.avi.002
    http://rapidshare.com/files/185764492/Sanai.Chaughade.2008.2CD.DVDRiP.XviD.by.IndianHacker.avi.003
    http://rapidshare.com/files/185768194/Sanai.Chaughade.2008.2CD.DVDRiP.XviD.by.IndianHacker.avi.004
    http://rapidshare.com/files/185772014/Sanai.Chaughade.2008.2CD.DVDRiP.XviD.by.IndianHacker.avi.005
    http://rapidshare.com/files/185775903/Sanai.Chaughade.2008.2CD.DVDRiP.XviD.by.IndianHacker.avi.006
    http://rapidshare.com/files/185779699/Sanai.Chaughade.2008.2CD.DVDRiP.XviD.by.IndianHacker.avi.007
    http://rapidshare.com/files/185783897/Sanai.Chaughade.2008.2CD.DVDRiP.XviD.by.IndianHacker.avi.008
    http://rapidshare.com/files/185788090/Sanai.Chaughade.2008.2CD.DVDRiP.XviD.by.IndianHacker.avi.009
    http://rapidshare.com/files/185792084/Sanai.Chaughade.2008.2CD.DVDRiP.XviD.by.IndianHacker.avi.010
    http://rapidshare.com/files/185796091/Sanai.Chaughade.2008.2CD.DVDRiP.XviD.by.IndianHacker.avi.011
    http://rapidshare.com/files/185799415/Sanai.Chaughade.2008.2CD.DVDRiP.XviD.by.IndianHacker.avi.012
    http://rapidshare.com/files/185802851/Sanai.Chaughade.2008.2CD.DVDRiP.XviD.by.IndianHacker.avi.013
    http://rapidshare.com/files/185806014/Sanai.Chaughade.2008.2CD.DVDRiP.XviD.by.IndianHacker.avi.014


    English Subs:-

    http://rapidshare.com/files/185806023/Sanai.Chaughade.2008.2CD.DVDRiP.XviD.by.IndianHacker.srt


    Join with HJSplit..........

    NJOY.......>:D<>:D<
     
    Sports_Champ likes this.
  2. Sports_Champ

    Sports_Champ KiNG oF qUAliTy

  3. seivehicy

    seivehicy Banned

Share This Page