[HF] Picnic 2008 DVDRip 700MB 1CD Xvid Single Link

Discussion in 'Marathi' started by oxford2o07, Jul 26, 2010.

  1. oxford2o07

    oxford2o07 New Member

    [​IMG]

    Santosh Juvekar, Sushant Shelar, Rahul Mehendale, Sai Tamhankar and Ajay Tamhane

    "Picnic" is the story of today's youth, passion for life, possessed with competition and not

    willing to accept defeat. Sometimes possession overwhelms passion.


    [​IMG]

    General
    Format : AVI
    Format/Info : Audio Video Interleave
    Format profile : OpenDML
    File size : 700 MiB
    Duration : 1h 29mn
    Overall bit rate : 1 093 Kbps
    Writing application : AVI-Mux GUI 1.17.8.3, Feb 16 201019:42:50

    Video
    ID : 0
    Format : MPEG-4 Visual
    Format profile : Advanced [email protected]
    Format settings, BVOP : Yes
    Format settings, QPel : No
    Format settings, GMC : No warppoints
    Format settings, Matrix : Default (H.263)
    Codec ID : XVID
    Codec ID/Hint : XviD
    Duration : 1h 29mn
    Bit rate : 1 026 Kbps
    Width : 512 pixels
    Height : 320 pixels
    Display aspect ratio : 1.600
    Frame rate : 25.000 fps
    Color space : YUV
    Chroma subsampling : 40
    Bit depth : 8 bits
    Scan type : Progressive
    Bits/(Pixel*Frame) : 0.250
    Stream size : 657 MiB (94%)
    Writing library : XviD 1.2.1 (UTC 2008-12-04)

    Audio
    ID : 1
    Format : MPEG Audio
    Format version : Version 2
    Format profile : Layer 3
    Mode : Joint stereo
    Mode extension : MS Stereo
    Codec ID : 55
    Codec ID/Hint : MP3
    Duration : 1h 29mn
    Bit rate mode : Constant
    Bit rate : 64.0 Kbps
    Channel(s) : 2 channels
    Sampling rate : 24.0 KHz
    Stream size : 41.0 MiB (6%)
    Alignment : Aligned on interleaves
    Interleave, duration : 760 ms (19.00 video frames)
    Interleave, preload duration : 216 ms
    Title : Picnic
    Writing library : LAME3.98r
    Encoding settings : -m j -V 4 -q 2 -lowpass 11 -b 64


    Credits To SaketSaket




    Code:
    http://hotfile.com/dl/55646200/29d09b7/Picnic.avi.html
    
     

Share This Page