[HF] Nashibachi Aishi Taishi 2007 DVDRip 1CD 700MB Xvid Single Link

Discussion in 'Marathi' started by oxford2o07, Jul 26, 2010.

  1. oxford2o07

    oxford2o07 New Member

    [​IMG]

    Sanjay Narvekar, Priyanka Yadav, Kishor Nandalskar, Vijay Chavan, Dinesh Hinge, Asit Redij,

    Usha Naik.



    [​IMG]


    General
    Format : AVI
    Format/Info : Audio Video Interleave
    Format profile : OpenDML
    File size : 695 MiB
    Duration : 2h 17mn
    Overall bit rate : 709 Kbps
    Writing application : AVI-Mux GUI 1.17.8.3, Feb 16 201019:42:50

    Video
    ID : 0
    Format : MPEG-4 Visual
    Format profile : Advanced [email protected]
    Format settings, BVOP : Yes
    Format settings, QPel : No
    Format settings, GMC : No warppoints
    Format settings, Matrix : Default (H.263)
    Codec ID : XVID
    Codec ID/Hint : XviD
    Duration : 2h 17mn
    Bit rate : 641 Kbps
    Width : 608 pixels
    Height : 272 pixels
    Display aspect ratio : 2.25:1
    Frame rate : 23.976 fps
    Color space : YUV
    Chroma subsampling : 40
    Bit depth : 8 bits
    Scan type : Progressive
    Bits/(Pixel*Frame) : 0.162
    Stream size : 629 MiB (90%)
    Writing library : XviD 1.2.1 (UTC 2008-12-04)

    Audio
    ID : 1
    Format : MPEG Audio
    Format version : Version 2
    Format profile : Layer 3
    Mode : Joint stereo
    Mode extension : MS Stereo
    Codec ID : 55
    Codec ID/Hint : MP3
    Duration : 2h 17mn
    Bit rate mode : Constant
    Bit rate : 64.0 Kbps
    Channel(s) : 2 channels
    Sampling rate : 24.0 KHz
    Stream size : 62.8 MiB (9%)
    Alignment : Aligned on interleaves
    Interleave, duration : 989 ms (23.71 video frames)
    Interleave, preload duration : 216 ms
    Title : Nasheebachi Aishi Taishi T80 2_0ch 192Kbps DELAY 0ms
    Writing library : LAME3.98r
    Encoding settings : -m j -V 4 -q 2 -lowpass 11 -b 64


    Credits To SaketSaket




    Code:
    http://hotfile.com/dl/55132266/89f5656/Nasheebachi_Aishi_Taishi_-_2007.avi.html
    
     

Share This Page