[HF] Lalbaug Parel 2010 DVDRip 700MB 1CD Single Link

Discussion in 'Marathi' started by oxford2o07, Jul 26, 2010.

  1. oxford2o07

    oxford2o07 New Member


    [​IMG]


    Satish Kaushik, Siddharth Jadhav,
    Ankush Choudhary, Veena jamkar, VIneet Kumar,
    sameer Dharmadhikari, Sachin Khedekar,
    Kashmera Shah, Ganesh Yadav, Karan Patel,
    Shashank Shende, Seema Biswas

    [​IMG]

    Media Info -
    General
    Format : AVI
    Format/Info : Audio Video Interleave
    Format profile : OpenDML
    File size : 696 MiB
    Duration : 2h 26mn
    Overall bit rate : 665 Kbps
    Writing application : AVI-Mux GUI 1.17.8.3, Feb 16 201019:42:50

    Video
    ID : 0
    Format : MPEG-4 Visual
    Format profile : Advanced [email protected]
    Format settings, BVOP : Yes
    Format settings, QPel : No
    Format settings, GMC : No warppoints
    Format settings, Matrix : Default (H.263)
    Codec ID : XVID
    Codec ID/Hint : XviD
    Duration : 2h 26mn
    Bit rate : 597 Kbps
    Width : 608 pixels
    Height : 256 pixels
    Display aspect ratio : 2.35:1
    Frame rate : 23.976 fps
    Color space : YUV
    Chroma subsampling : 40
    Bit depth : 8 bits
    Scan type : Progressive
    Bits/(Pixel*Frame) : 0.160
    Stream size : 625 MiB (90%)
    Writing library : XviD 1.2.1 (UTC 2008-12-04)

    Audio
    ID : 1
    Format : MPEG Audio
    Format version : Version 2
    Format profile : Layer 3
    Mode : Joint stereo
    Mode extension : MS Stereo
    Codec ID : 55
    Codec ID/Hint : MP3
    Duration : 2h 26mn
    Bit rate mode : Constant
    Bit rate : 64.0 Kbps
    Channel(s) : 2 channels
    Sampling rate : 24.0 KHz
    Stream size : 67.0 MiB (10%)
    Alignment : Aligned on interleaves
    Interleave, duration : 1000 ms (23.98 video frames)
    Interleave, preload duration : 216 ms
    Title : Lalbaug Paral T81 2_0ch 224Kbps DELAY 0ms
    Writing library : LAME3.98r
    Encoding settings : -m j -V 4 -q 2 -lowpass 11 -b 64


    Credits To SaketSaket




    Code:
    http://hotfile.com/dl/55130853/005f1c4/Lalbaug_Parel_-_2010.avi.html
    
    
     

Share This Page