[HF] Khurchi Samrat 2010 DVDRip 1CD 700MB MKV Single Link

Discussion in 'Marathi' started by oxford2o07, Jul 26, 2010.

  1. oxford2o07

    oxford2o07 New Member



    [​IMG]


    Makrand Anaspure, Rutuja Patil, Chetan Dalvi, Kishori Ambiye, Vilas Rakate, Baal Dhuri, Usha

    Naik, Anuja Ranade, Shanta Tambe, N. Relekar, Surekha Kudachi, Vijay Chavhan

    [​IMG]


    General
    Format : Matroska
    File size : 699 MiB
    Duration : 2h 11mn
    Overall bit rate : 746 Kbps
    Encoded date : UTC 2010-06-29 13:01:11
    Writing application : mkvmerge v4.0.0 ('The Stars were mine') built on Jun 6 2010 16:18:42
    Writing library : libebml v1.0.0 + libmatroska v1.0.0

    Video
    ID : 1
    Format : AVC
    Format/Info : Advanced Video Codec
    Format profile : [email protected]
    Format settings, CABAC : Yes
    Format settings, ReFrames : 4 frames
    Muxing mode : Container [email protected]
    Codec ID : V_MPEG4/ISO/AVC
    Duration : 2h 11mn
    Bit rate : 648 Kbps
    Width : 544 pixels
    Height : 272 pixels
    Display aspect ratio : 2.000
    Frame rate : 23.976 fps
    Color space : YUV
    Chroma subsampling : 40
    Bit depth : 8 bits
    Scan type : Progressive
    Bits/(Pixel*Frame) : 0.183
    Stream size : 595 MiB (85%)
    Writing library : x264 core 98 r1649 c54c47d

    Audio
    ID : 2
    Format : MPEG Audio
    Format version : Version 1
    Format profile : Layer 3
    Mode : Joint stereo
    Mode extension : MS Stereo
    Codec ID : A_MPEG/L3
    Codec ID/Hint : MP3
    Duration : 2h 11mn
    Bit rate mode : Constant
    Bit rate : 96.0 Kbps
    Channel(s) : 2 channels
    Sampling rate : 32.0 KHz
    Stream size : 90.0 MiB (13%)
    Writing library : LAME3.98r
    Encoding settings : -m j -V 4 -q 2 -lowpass 15.1 -b 96


    Credits To SaketSaket




    Code:
    http://hotfile.com/dl/55140337/15ca33a/Khurchi_Samrat_-_2010.mkv.html
    
    
     

Share This Page