[HF] Irada Pakka Marathi Movie 2010 DVDRip 1CD 700MB Xvid Single Link

Discussion in 'Marathi' started by oxford2o07, Jul 26, 2010.

  1. oxford2o07

    oxford2o07 New Member


    [​IMG]



    Siddharth Jadhav, Sonalee, Mohan Joshi, Smita Jaikar, Kamlakar Satpute, Shalaka Pawar...


    [​IMG]

    General
    Format : AVI
    Format/Info : Audio Video Interleave
    Format profile : OpenDML
    File size : 699 MiB
    Duration : 2h 11mn
    Overall bit rate : 744 Kbps
    Writing application : AVI-Mux GUI 1.17.8.3, Feb 16 201019:42:50

    Video
    ID : 0
    Format : MPEG-4 Visual
    Format profile : Advanced [email protected]
    Format settings, BVOP : Yes
    Format settings, QPel : No
    Format settings, GMC : No warppoints
    Format settings, Matrix : Default (H.263)
    Codec ID : XVID
    Codec ID/Hint : XviD
    Duration : 2h 11mn
    Bit rate : 677 Kbps
    Width : 512 pixels
    Height : 224 pixels
    Display aspect ratio : 2.25:1
    Frame rate : 23.976 fps
    Color space : YUV
    Chroma subsampling : 40
    Bit depth : 8 bits
    Scan type : Progressive
    Bits/(Pixel*Frame) : 0.246
    Stream size : 636 MiB (91%)
    Writing library : XviD 1.2.1 (UTC 2008-12-04)

    Audio
    ID : 1
    Format : MPEG Audio
    Format version : Version 1
    Format profile : Layer 3
    Mode : Joint stereo
    Mode extension : MS Stereo
    Codec ID : 55
    Codec ID/Hint : MP3
    Duration : 2h 11mn
    Bit rate mode : Constant
    Bit rate : 64.0 Kbps
    Channel(s) : 2 channels
    Sampling rate : 32.0 KHz
    Stream size : 60.1 MiB (9%)
    Alignment : Aligned on interleaves
    Interleave, duration : 957 ms (22.95 video frames)
    Interleave, preload duration : 216 ms
    Title : Irada Pakka [2010] Tc0 L2 2ch 48 112 DELAY 0ms


    Credits To SaketSaket



    Code:
    http://hotfile.com/dl/55129958/03979c3/Irada_Pakka_-_2010.avi.html
    
     

Share This Page