Gallit Gondhal Dillit Mujra (2009) 1CD DVDRiP XviD - AXiS

Discussion in 'Marathi' started by svm29, Aug 25, 2009.

  1. svm29

    svm29 New Member

    Gallit Gondhal Dillit Mujra (2009) 1CD DVDRiP XviD

    [​IMG]
    ~*InFo*~



    Code:
    General

    Format : AVI
    Format/Info : Audio Video Interleave
    File size : 699 MiB
    Duration : 1h 55mn
    Overall bit rate : 844 Kbps

    Video
    Format : MPEG-4 Visual
    Codec ID : XVID
    Codec ID/Hint : XviD
    Duration : 1h 55mn
    Bit rate : 724 Kbps
    Width : 656 pixels
    Height : 320 pixels
    Frame rate : 25.000 fps
    Scan type : Progressive
    Stream size : 600 MiB (86%)
    Writing library : XviD 1.2.1 (UTC 2008-12-04)

    Audio
    Format : MPEG Audio
    Format version : Version 1
    Format profile : Layer 3
    Codec ID : 55
    Codec ID/Hint : MP3
    Duration : 1h 55mn
    Bit rate mode : Variable
    Bit rate : 107 Kbps
    Nominal bit rate : 128 Kbps
    Channel(s) : 2 channels
    Sampling rate : 48.0 KHz
    Resolution : 16 bits
    Stream size : 88.8 MiB (13%)
    Alignment : Aligned on interleaves
    Interleave, duration : 24 ms (0.60 video frame)
    Interleave, preload duration : 570 ms

    Rip Info

    Source : DVD @ AXiS
    Ripper : [email protected]


    ~*ScReeNShoTz*~
    http://img199.imageshack.us/img199/1954/vlcsnap2009080819h09m37.png
    http://img21.imageshack.us/img21/1433/vlcsnap2009080818h46m43.png
    http://img341.imageshack.us/img341/1683/vlcsnap2009080818h48m30.png
    ~*DowNLoaD*~




    megaupload.com
    Code:

    http://www.megaupload.com/?d=AS0U47PD
    http://www.megaupload.com/?d=EIVC8WGP
    http://www.megaupload.com/?d=M9VG5G8P
    http://www.megaupload.com/?d=10EX2OYE
    http://www.megaupload.com/?d=M10CNMQC
    http://www.megaupload.com/?d=DUTPTK9L
    http://www.megaupload.com/?d=GMJMF6MO
    http://www.megaupload.com/?d=NVQSA90U

    Or

    http://www.megaupload.com/?d=EGWAXFIA
    http://www.megaupload.com/?d=JW2VB68Y
    http://www.megaupload.com/?d=E70EI41V
    http://www.megaupload.com/?d=GTMCAJJ0
    http://www.megaupload.com/?d=HDNPUJK8
    http://www.megaupload.com/?d=5BRQZ3OI
    http://www.megaupload.com/?d=5F6FXGPS
    http://www.megaupload.com/?d=9TUZ3SW4

    filefactory.com
    Code:

    http://filefactory.com/file/ah050eg/n/Gallit_Gondhal_Dillit_Mujra_part1_rar
    http://filefactory.com/file/ah05159/n/Gallit_Gondhal_Dillit_Mujra_part2_rar
    http://filefactory.com/file/ah0634e/n/Gallit_Gondhal_Dillit_Mujra_part3_rar
    http://filefactory.com/file/ah080hg/n/Gallit_Gondhal_Dillit_Mujra_part4_rar
    http://filefactory.com/file/ah081e7/n/Gallit_Gondhal_Dillit_Mujra_part5_rar
    http://filefactory.com/file/ah082g7/n/Gallit_Gondhal_Dillit_Mujra_part6_rar
    http://filefactory.com/file/ah08345/n/Gallit_Gondhal_Dillit_Mujra_part7_rar
    http://filefactory.com/file/ah06218/n/Gallit_Gondhal_Dillit_Mujra_part8_rar

    badongo.com
    Code:

    http://www.badongo.com/file/16501396
    http://www.badongo.com/file/16501877
    http://www.badongo.com/file/16508844
    http://www.badongo.com/file/16520365
    http://www.badongo.com/file/16520949
    http://www.badongo.com/file/16521471
    http://www.badongo.com/file/16522092
    http://www.badongo.com/file/16508323

    depositfiles.com
    Code:

    http://depositfiles.com/files/g9ybcfc65
    http://depositfiles.com/files/rg8at63lu
    http://depositfiles.com/files/kcl9ibssk
    http://depositfiles.com/files/y19xf4khm
    http://depositfiles.com/files/4gah66trc
    http://depositfiles.com/files/un868dqh0
    http://depositfiles.com/files/99n6ckngo
    http://depositfiles.com/files/hw9xtcbjm
     
    czz61245 likes this.
  2. czz61245

    czz61245 BZ Rockers

    Abhari Ahe...Must watch European gal Lavani !!!!8->
     
  3. ignifePiche

    ignifePiche New Member

    Greetings?!?!

    Talk to me !!!
     

Share This Page